<?xml version="1.0" standalone="no"?>
<!DOCTYPE svg PUBLIC "-//W3C//DTD SVG 1.1//EN" "http://www.w3.org/Graphics/SVG/1.1/DTD/svg11.dtd" >
<svg xmlns="http://www.w3.org/2000/svg" xmlns:xlink="http://www.w3.org/1999/xlink" version="1.1">
<metadata>
Created by FontForge 20161116 at Wed Feb 24 11:26:27 2016
 By Jimmy Wärting
Copyright (c) 2010-2012 by The Entente (AS&#38;EH). All rights reserved.
</metadata>
<defs>
<font id="ApercuPro" horiz-adv-x="1212" >
  <font-face
    font-family="ApercuPro"
    font-weight="400"
    font-stretch="normal"
    units-per-em="2048"
    panose-1="2 0 5 6 4 0 0 2 0 4"
    ascent="1638"
    descent="-410"
    x-height="1030"
    cap-height="1434"
    bbox="-8 -481 1982 1849"
    underline-thickness="102"
    underline-position="-204"
    unicode-range="U+000D-25FC"
  />
<missing-glyph horiz-adv-x="748"
d="M68 0v1365h544v-1365h-544zM136 68h408v1229h-408v-1229z" />
    <glyph glyph-name=".notdef" horiz-adv-x="748"
d="M68 0v1365h544v-1365h-544zM136 68h408v1229h-408v-1229z" />
    <glyph glyph-name="glyph1" horiz-adv-x="0"
 />
    <glyph glyph-name="glyph1" horiz-adv-x="0"
 />
    <glyph glyph-name="uni000D" unicode="&#xd;" horiz-adv-x="681"
 />
    <glyph glyph-name="space" unicode=" " horiz-adv-x="548"
 />
    <glyph glyph-name="exclam" unicode="!" horiz-adv-x="706"
d="M215 133q0 61 41 105q41 41 102 41q59 0 103 -41q41 -44 41 -105q0 -57 -41 -98t-103 -41q-64 0 -102 41q-41 41 -41 98zM242 1434h233l-49 -1024h-135z" />
    <glyph glyph-name="quotedbl" unicode="&#x22;" horiz-adv-x="903"
d="M180 1450h230l-52 -475h-127zM494 1450h229l-51 -475h-127z" />
    <glyph glyph-name="numbersign" unicode="#" horiz-adv-x="1478"
d="M147 426v139h267l61 303h-246v140h275l88 426h149l-88 -426h291l86 426h150l-86 -426h237v-140h-266l-61 -303h245v-139h-274l-88 -426h-150l88 426h-290l-86 -426h-150l86 426h-238zM563 565h291l61 303h-290z" />
    <glyph glyph-name="dollar" unicode="$" horiz-adv-x="1071"
d="M82 371l156 90q42 -148 110 -228q66 -81 197 -81q125 0 194 81q55 67 58 170q0 93 -72 156q-69 60 -201 123q-89 44 -135 70q-45 25 -104 77q-59 49 -82 109q-25 67 -25 141q0 137 82 238q83 99 205 123v174h164v-176q180 -35 274 -221l-145 -95q-47 84 -103 121
q-53 33 -127 33q-72 0 -122 -53q-50 -56 -50 -125q0 -50 19 -90q16 -37 65 -76q43 -33 82 -53q100 -52 111 -58q26 -13 98 -53q32 -14 90 -59q62 -50 80 -78q32 -43 51 -96q23 -61 23 -123q0 -173 -113 -295q-94 -104 -235 -125v-176h-164v174q-146 24 -248 129
q-103 103 -133 252z" />
    <glyph glyph-name="percent" unicode="%" horiz-adv-x="1724"
d="M119 1120q0 140 94 234q96 96 233 96q140 0 236 -96q92 -95 92 -232q0 -139 -92 -231q-96 -96 -236 -96q-137 0 -233 96q-94 91 -94 231v-2zM258 20l1102 1471l102 -80l-1102 -1472zM268 1118q0 -78 47 -131q48 -51 129 -51q84 0 129 51q50 53 50 131q0 80 -50 133
q-48 54 -129 54q-78 0 -129 -54q-47 -53 -47 -131v-2zM948 305q0 137 94 234q96 96 236 96q137 0 233 -96q95 -95 95 -232q0 -139 -95 -231q-93 -96 -233 -96q-138 0 -234 96q-94 91 -94 231zM1098 303q0 -79 49 -131q45 -51 129 -51q83 0 131 51q47 53 47 131q0 80 -47 133
q-50 53 -131 53q-82 0 -129 -53q-49 -52 -49 -131v-2z" />
    <glyph glyph-name="ampersand" unicode="&#x26;" horiz-adv-x="1386"
d="M152 410q0 153 81 262q77 110 195 174q-125 172 -125 299q0 133 92 219q95 86 228 86q149 0 233 -84q84 -81 84 -205q0 -83 -49 -174q-63 -101 -227 -184l299 -379q43 87 96 244l115 -125q-55 -153 -107 -252l227 -291h-204l-121 152q-146 -168 -383 -168
q-201 0 -316 112q-116 113 -116 314h-2zM319 406q0 -126 76 -193q78 -72 189 -72q175 0 284 133l-352 453q-197 -108 -197 -321zM467 1135q0 -95 98 -226q98 49 158 109q53 56 53 133q0 64 -45 106q-46 46 -113 46q-65 0 -110 -48q-41 -44 -41 -118v-2z" />
    <glyph glyph-name="quotesingle" unicode="'" horiz-adv-x="589"
d="M180 1450h230l-52 -475h-127z" />
    <glyph glyph-name="parenleft" unicode="(" horiz-adv-x="598"
d="M145 717q0 476 220 819h172q-215 -341 -215 -819q0 -475 215 -819h-172q-220 343 -220 819z" />
    <glyph glyph-name="parenright" unicode=")" horiz-adv-x="598"
d="M61 -102q215 344 215 819q0 478 -215 819h172q220 -343 220 -819t-220 -819h-172z" />
    <glyph glyph-name="asterisk" unicode="*" horiz-adv-x="999"
d="M119 1122l43 133l268 -88v283h139v-283l269 88l43 -133l-267 -88l164 -227l-112 -80l-166 227l-166 -227l-113 80l164 227z" />
    <glyph glyph-name="plus" unicode="+" horiz-adv-x="1163"
d="M133 578v151h375v375h151v-375h375v-151h-375v-375h-151v375h-375z" />
    <glyph glyph-name="comma" unicode="," horiz-adv-x="651"
d="M139 -219l135 444h234l-238 -444h-131z" />
    <glyph glyph-name="hyphen" unicode="-" horiz-adv-x="985"
d="M145 573v152h695v-152h-695z" />
    <glyph glyph-name="period" unicode="." horiz-adv-x="626"
d="M184 121q0 53 37 90q39 39 92 39q51 0 90 -39t39 -90q0 -56 -36 -92q-34 -37 -93 -37q-58 0 -92 37q-37 37 -37 92z" />
    <glyph glyph-name="slash" unicode="/" horiz-adv-x="1112"
d="M39 -102l893 1638h172l-893 -1638h-172z" />
    <glyph glyph-name="zero" unicode="0" horiz-adv-x="1277"
d="M135 717q0 343 129 536q129 197 375 197t375 -197q129 -193 129 -536t-129 -537q-127 -194 -375 -194t-375 194q-129 194 -129 537zM315 717q0 -274 82 -420q84 -152 242 -152q160 0 244 152q82 146 82 420q0 271 -82 420t-244 149q-160 0 -242 -149t-82 -420z" />
    <glyph glyph-name="one" unicode="1" horiz-adv-x="770"
d="M152 1022v188l368 224h64v-1434h-168v1176z" />
    <glyph glyph-name="two" unicode="2" horiz-adv-x="1167"
d="M147 0v78l547 698q68 86 92 148q25 61 25 127q0 101 -53 166q-58 70 -172 67q-103 0 -162 -65q-65 -68 -74 -179l-172 33q9 158 125 268q118 109 283 109q198 0 311 -125q90 -104 90 -272q0 -161 -115 -312l-446 -577h588v-164h-867z" />
    <glyph glyph-name="three" unicode="3" horiz-adv-x="1183"
d="M125 393l172 23q38 -271 285 -271q126 0 206 80q78 81 78 224q0 144 -78 225q-83 80 -206 80q-67 0 -127 -29l-72 96l328 449h-518v164h778v-58l-367 -491q18 6 60 6q164 0 272 -123q106 -121 106 -317q0 -206 -129 -338q-129 -129 -331 -129q-183 0 -310 112
q-129 111 -147 297z" />
    <glyph glyph-name="four" unicode="4" horiz-adv-x="1220"
d="M131 305v72l606 1057h193v-965h178v-164h-178v-305h-176v305h-623zM365 469h389v694z" />
    <glyph glyph-name="five" unicode="5" horiz-adv-x="1185"
d="M160 375l176 31q12 -125 82 -195q71 -68 178 -68q131 0 201 88q71 83 71 234q0 148 -71 231q-71 86 -201 86q-168 0 -289 -157l-108 22l77 785h685v-164h-535l-53 -416q91 94 233 94q206 0 324 -133q117 -132 117 -348q0 -213 -123 -348q-124 -133 -328 -133
q-182 0 -297 100q-121 103 -139 291z" />
    <glyph glyph-name="six" unicode="6" horiz-adv-x="1181"
d="M156 451q0 142 73 264l424 735h197l-311 -547q37 15 69 15q197 0 324 -136q129 -135 129 -331q0 -200 -129 -332q-126 -135 -324 -135q-197 0 -323 135q-129 132 -129 332zM336 451h2q0 -130 76 -218q77 -86 194 -86q120 0 197 86q76 88 76 218q0 137 -76 219
q-78 84 -199 84q-119 0 -194 -84q-76 -82 -76 -219z" />
    <glyph glyph-name="seven" unicode="7" horiz-adv-x="987"
d="M113 1270v164h817v-76l-557 -1358h-180l526 1270h-606z" />
    <glyph glyph-name="eight" unicode="8" horiz-adv-x="1196"
d="M154 412q0 132 57 221q58 95 156 137q-73 40 -117 123q-45 77 -45 174q0 162 110 272q111 111 283 111t283 -111q110 -110 110 -272q0 -97 -45 -174q-44 -83 -117 -123q95 -42 156 -137q57 -89 57 -221q0 -197 -129 -314q-129 -114 -315 -114q-187 0 -315 116
q-129 114 -129 312zM330 410q0 -120 73 -193q75 -72 191 -72q115 0 190 72q74 74 74 193q0 123 -72 192q-75 72 -190 72t-190 -72q-72 -69 -72 -192h-4zM371 1063q0 -102 59 -164q58 -61 162 -61q102 0 160 61q59 62 59 166q0 102 -59 164q-58 61 -160 61t-160 -61
q-59 -62 -59 -164z" />
    <glyph glyph-name="nine" unicode="9" horiz-adv-x="1181"
d="M156 983q0 199 129 334q127 133 323 133q197 0 324 -133q129 -135 129 -334q0 -134 -76 -264l-424 -735h-194l311 546q-32 -14 -72 -14q-193 0 -323 133q-127 136 -127 334zM334 983q0 -136 74 -219q76 -82 196 -82q123 0 199 82t76 219q0 133 -76 215q-77 86 -197 86
q-117 0 -194 -86q-76 -82 -76 -215h-2z" />
    <glyph glyph-name="colon" unicode=":" horiz-adv-x="626"
d="M184 121q0 53 37 90q39 39 92 39q51 0 90 -39t39 -90q0 -56 -36 -92q-34 -37 -93 -37q-58 0 -92 37q-37 37 -37 92zM184 825q0 53 37 90t92 37q53 0 90 -37q39 -39 39 -90q0 -55 -36 -94q-37 -37 -93 -37q-55 0 -92 37q-37 40 -37 94z" />
    <glyph glyph-name="semicolon" unicode=";" horiz-adv-x="626"
d="M74 -219l135 444h233l-237 -444h-131zM180 825q0 53 37 90t92 37q53 0 90 -37q39 -36 39 -90q0 -55 -39 -94q-37 -37 -90 -37q-55 0 -92 37q-37 40 -37 94z" />
    <glyph glyph-name="less" unicode="&#x3c;" horiz-adv-x="931"
d="M102 545v180l715 379v-176l-547 -293l547 -293v-176z" />
    <glyph glyph-name="equal" unicode="=" horiz-adv-x="1226"
d="M205 389v152h817v-152h-817zM205 729v152h817v-152h-817z" />
    <glyph glyph-name="greater" unicode="&#x3e;" horiz-adv-x="931"
d="M115 166v176l547 293l-547 293v176l714 -379v-180z" />
    <glyph glyph-name="question" unicode="?" horiz-adv-x="917"
d="M96 1141q34 140 129 223q96 84 248 84q158 0 254 -90q92 -86 92 -215q0 -170 -155 -246l-207 -98q-100 -54 -103 -144q0 -46 29 -75q30 -27 80 -27q95 0 145 121l133 -47q-73 -217 -272 -217q-125 0 -197 69q-71 65 -71 189q0 167 174 258q41 23 100 45q57 22 86 39
q90 49 90 143q0 70 -45 109q-51 45 -133 45q-76 0 -133 -54q-58 -52 -82 -137l-160 27zM334 127q0 59 39 98q36 39 96 39q59 0 98 -39t39 -98q0 -60 -39 -96q-39 -39 -98 -39q-60 0 -96 39q-39 36 -39 96z" />
    <glyph glyph-name="at" unicode="@" horiz-adv-x="1884"
d="M164 614q0 390 239 623q240 231 578 231q351 0 551 -194q201 -195 201 -553q0 -249 -99 -375q-98 -125 -260 -125q-77 0 -139 41q-61 40 -88 98q-91 -141 -268 -141q-169 0 -261 109q-94 107 -94 276q0 189 119 320q121 133 311 133q163 0 230 -119l18 102h135l-47 -516
q-1 -11 -2 -22.5t-1.5 -17t-0.5 -7.5q0 -104 96 -104q181 0 181 348q0 602 -590 602q-123 0 -238 -47q-111 -45 -203 -131q-89 -83 -143 -225q-53 -139 -53 -310q0 -302 188 -481q189 -174 449 -174q132 0 244 25q109 24 256 100l57 -137q-193 -86 -281 -107
q-119 -29 -276 -29q-347 0 -580 222q-227 220 -227 587zM692 598h2q0 -109 51 -166q47 -59 148 -59q115 0 182 88q66 91 66 219q0 223 -201 223q-119 0 -182 -84q-66 -87 -66 -221z" />
    <glyph glyph-name="A" unicode="A" horiz-adv-x="1265"
d="M25 0l495 1434h172l496 -1434h-180l-127 383h-549l-127 -383h-180zM389 555h434l-217 645z" />
    <glyph glyph-name="B" unicode="B" horiz-adv-x="1265"
d="M197 1434h483q189 0 295 -97q108 -99 108 -270q0 -92 -45 -168q-48 -76 -116 -115q105 -42 170 -135q61 -91 61 -223q0 -197 -117 -311q-121 -115 -327 -115h-510zM377 172h303q287 0 287 254q0 252 -287 252h-303v-506zM377 850h291q106 0 166 51q61 52 61 154
q0 98 -61 153q-63 54 -164 54h-293v-412z" />
    <glyph glyph-name="C" unicode="C" horiz-adv-x="1409"
d="M111 719q0 350 188 541q190 190 459 190q218 0 364 -119q148 -121 197 -313l-174 -51q-102 313 -387 313q-205 0 -332 -145q-129 -147 -129 -416q0 -272 129 -416q127 -145 332 -145q285 0 387 313l174 -51q-50 -196 -197 -316q-145 -118 -362 -118q-269 0 -459 190
q-188 194 -188 541z" />
    <glyph glyph-name="D" unicode="D" horiz-adv-x="1363"
d="M199 0v1436h393q279 0 469 -193q188 -188 188 -524q0 -338 -188 -526q-190 -193 -469 -193h-393zM379 174l180 -2q100 0 191 31q86 30 157 92q72 63 111 170q41 109 41 254q0 142 -41 254q-41 109 -111 170q-73 63 -157 92q-92 29 -191 29h-180v-1090z" />
    <glyph glyph-name="E" unicode="E" horiz-adv-x="1159"
d="M199 0v1434h823v-172h-643v-412h520v-172h-520v-506h663v-172h-843z" />
    <glyph glyph-name="F" unicode="F" horiz-adv-x="1101"
d="M199 0v1434h833v-172h-653v-428h530v-172h-530v-662h-180z" />
    <glyph glyph-name="G" unicode="G" horiz-adv-x="1462"
d="M111 717q0 355 188 543q187 190 459 190q219 0 366 -117q144 -114 197 -317l-174 -51q-105 313 -389 313q-204 0 -334 -145q-127 -148 -127 -416q0 -271 127 -416q130 -145 334 -145q178 0 280 108q103 106 115 287h-309v172h481v-723h-154l-18 197q-51 -91 -158 -154
q-101 -59 -243 -59q-263 0 -453 190q-186 189 -186 543h-2z" />
    <glyph glyph-name="H" unicode="H" horiz-adv-x="1413"
d="M199 0v1434h180v-586h655v586h180v-1434h-180v676h-655v-676h-180z" />
    <glyph glyph-name="I" unicode="I" horiz-adv-x="577"
d="M199 0v1434h180v-1434h-180z" />
    <glyph glyph-name="J" unicode="J" horiz-adv-x="1042"
d="M23 358l180 37q51 -239 247 -239h5q237 0 237 293v985h180v-996q0 -215 -116 -334q-117 -120 -299 -120q-189 0 -295 106q-109 106 -139 268z" />
    <glyph glyph-name="K" unicode="K" horiz-adv-x="1222"
d="M199 0v1434h180v-576l534 576h230l-582 -643l631 -791h-229l-584 723v-723h-180z" />
    <glyph glyph-name="L" unicode="L" horiz-adv-x="1067"
d="M199 0v1434h180v-1262h651v-172h-831z" />
    <glyph glyph-name="M" unicode="M" horiz-adv-x="1605"
d="M199 0v1434h221l383 -1010l383 1010h221v-1434h-180v1044l-361 -913h-127l-360 913v-1044h-180z" />
    <glyph glyph-name="N" unicode="N" horiz-adv-x="1435"
d="M199 0v1434h211l647 -1121v1121h180v-1434h-211l-647 1116v-1116h-180z" />
    <glyph glyph-name="O" unicode="O" horiz-adv-x="1511"
d="M113 717q0 344 186 536q188 197 457 197t454 -197q187 -193 187 -536q0 -344 -187 -537q-182 -194 -454 -194t-457 194q-186 192 -186 537zM297 715q0 -269 129 -416q125 -143 328 -143q201 0 329 143q127 148 127 416q0 270 -127 415q-130 148 -327 148
q-200 0 -330 -145q-127 -148 -127 -416z" />
    <glyph glyph-name="P" unicode="P" horiz-adv-x="1196"
d="M197 1434h499q203 0 314 -111q112 -109 112 -299q0 -189 -110 -299q-114 -111 -314 -111h-319v-614h-180zM377 786l330 -2q111 0 170 62t59 178q0 114 -59 176q-62 62 -170 62h-330v-476z" />
    <glyph glyph-name="Q" unicode="Q" horiz-adv-x="1511"
d="M113 717l2 2q0 340 184 536q189 195 457 195q267 0 456 -195q187 -199 187 -536q0 -271 -129 -465l137 -137l-129 -131l-133 133q-167 -133 -389 -133q-272 0 -457 194q-186 192 -186 537zM299 715q0 -269 129 -416q125 -143 330 -143q155 0 264 84l-168 170l129 131
l158 -158q71 128 71 334q0 269 -129 416q-127 145 -327 145q-204 0 -328 -145q-129 -144 -129 -416v-2z" />
    <glyph glyph-name="R" unicode="R" horiz-adv-x="1312"
d="M199 0v1434h477q194 0 307 -101q115 -97 115 -278q0 -143 -78 -244q-81 -96 -221 -123l428 -688h-213l-420 676h-215v-676h-180zM379 848h301q231 0 231 207t-231 207h-301v-414z" />
    <glyph glyph-name="S" unicode="S" horiz-adv-x="1071"
d="M82 371l156 94q41 -145 108 -227q70 -82 199 -82q125 0 192 82q58 71 58 170q0 91 -70 155q-69 60 -201 123q-89 44 -135 70q-44 23 -106 78q-56 47 -80 108q-27 62 -27 141q0 156 107 263q104 104 247 104q146 0 232 -59q89 -67 141 -170l-143 -95q-54 92 -105 119
q-50 33 -125 33q-72 0 -122 -53q-50 -56 -50 -125q0 -47 19 -90q14 -39 65 -74q34 -27 80 -55q35 -18 113 -58q54 -26 98 -51q39 -22 88 -59q51 -39 82 -78q30 -41 51 -96q21 -59 21 -125q0 -173 -111 -293q-123 -135 -319 -135q-175 0 -299 106q-127 112 -164 279z" />
    <glyph glyph-name="T" unicode="T" horiz-adv-x="1069"
d="M31 1262v172h1007v-172h-413v-1262h-181v1262h-413z" />
    <glyph glyph-name="U" unicode="U" horiz-adv-x="1339"
d="M168 487v947h180v-959q0 -142 84 -229q87 -90 238 -90q150 0 237 90q84 84 84 229v959h180v-947q0 -238 -141 -370q-140 -131 -360 -131q-218 0 -361 131q-141 132 -141 370z" />
    <glyph glyph-name="V" unicode="V" horiz-adv-x="1200"
d="M16 1434h191l393 -1178l393 1178h191l-494 -1434h-180z" />
    <glyph glyph-name="W" unicode="W" horiz-adv-x="1851"
d="M57 1434h191l291 -1168l305 1016h164l305 -1016l291 1168h190l-383 -1434h-188l-297 985l-297 -985h-189z" />
    <glyph glyph-name="X" unicode="X" horiz-adv-x="1179"
d="M35 0l452 770l-389 664h207l285 -488l284 488h207l-389 -664l453 -770h-207l-348 594l-348 -594h-207z" />
    <glyph glyph-name="Y" unicode="Y" horiz-adv-x="1036"
d="M8 1434h199l311 -635l311 635h199l-420 -816v-618h-180v618z" />
    <glyph glyph-name="Z" unicode="Z" horiz-adv-x="1136"
d="M92 0v86l668 1176h-643v172h899v-86l-668 -1176h688v-172h-944z" />
    <glyph glyph-name="bracketleft" unicode="[" horiz-adv-x="661"
d="M199 -102v1638h385v-156h-222v-1327h222v-155h-385z" />
    <glyph glyph-name="backslash" unicode="\" horiz-adv-x="1112"
d="M8 1536h172l893 -1638h-172z" />
    <glyph glyph-name="bracketright" unicode="]" horiz-adv-x="661"
d="M78 53h221v1327h-221v156h385v-1638h-385v155z" />
    <glyph glyph-name="asciicircum" unicode="^" horiz-adv-x="1138"
d="M119 862l381 572h139l381 -572h-170l-281 416l-280 -416h-170z" />
    <glyph glyph-name="underscore" unicode="_" horiz-adv-x="940"
d="M61 0h818v-152h-818v152z" />
    <glyph glyph-name="grave" unicode="`" horiz-adv-x="466"
d="M39 1442h248l139 -295h-139z" />
    <glyph glyph-name="a" unicode="a" horiz-adv-x="1060"
d="M115 297h2q0 165 125 250q127 88 342 88h168v45q0 213 -228 213q-80 0 -141 -43q-60 -47 -74 -121l-151 35q18 129 121 207q98 76 245 76q180 0 289 -97q109 -93 109 -293v-657h-136l-28 143q-114 -159 -316 -159h-8q-143 0 -229 77q-90 78 -90 236zM293 297
q0 -74 43 -117t127 -43q116 0 203 78q86 77 86 240v22h-187q-133 0 -200 -47q-72 -46 -72 -133z" />
    <glyph glyph-name="b" unicode="b" horiz-adv-x="1230"
d="M186 1450h172v-541q26 48 119 97q92 45 182 45q219 0 340 -148q119 -150 119 -387q0 -241 -119 -387q-118 -145 -337 -145q-94 0 -179 43q-85 40 -123 100v-127h-172zM344 516q0 -166 80 -272q80 -105 219 -105q135 0 217 105q82 104 82 272q0 171 -82 275t-217 104
q-140 0 -219 -104q-80 -106 -80 -275z" />
    <glyph glyph-name="c" unicode="c" horiz-adv-x="1101"
d="M109 512q0 224 122 379q120 153 349 153q306 0 432 -284l-152 -62q-79 190 -280 193q-142 0 -220 -107q-73 -104 -73 -270t73 -270q76 -107 220 -107q201 0 282 193l150 -64q-123 -282 -426 -282h-6q-227 0 -347 153q-122 155 -122 379z" />
    <glyph glyph-name="d" unicode="d" horiz-adv-x="1230"
d="M109 514q0 239 118 387q121 148 340 148q88 0 183 -45q93 -49 118 -95v541h172v-1450h-172v127q-42 -60 -123 -100q-85 -43 -178 -43q-220 0 -338 145t-118 387zM285 514q0 -168 82 -272q82 -107 217 -107q140 0 219 107q80 106 80 272t-80 272q-81 107 -219 107
q-133 0 -217 -107q-82 -104 -82 -272z" />
    <glyph glyph-name="e" unicode="e" horiz-adv-x="1146"
d="M111 516q0 223 120 379q124 154 347 154q218 0 342 -142q122 -143 122 -348v-80h-757q9 -154 84 -246q73 -94 209 -94q109 0 174 47q67 49 110 150l154 -68q-76 -155 -176 -219q-101 -65 -262 -65q-225 0 -345 153q-122 155 -122 379zM297 635l567 -2q-24 116 -96 188
t-190 72q-114 0 -187 -70q-71 -71 -94 -188z" />
    <glyph glyph-name="f" unicode="f" horiz-adv-x="745"
d="M94 1032h150v70q0 173 86 262q86 86 248 86q91 0 147 -33l-37 -149q-53 26 -115 26q-82 0 -120 -47q-37 -46 -37 -147v-68h237v-155h-237v-877h-172v877h-148z" />
    <glyph glyph-name="g" unicode="g" horiz-adv-x="1038"
d="M109 -94v-4q0 133 96 217q-70 58 -70 164q0 127 125 188q-76 91 -76 225q0 161 103 254q100 97 258 97q93 0 184 -48l184 105l78 -141l-137 -78q49 -79 49 -187q0 -159 -100 -249q-106 -95 -258 -95q-103 0 -178 37q-68 -30 -68 -98q0 -86 117 -86h243q144 0 236 -76
q88 -70 88 -209q0 -180 -123 -268q-122 -88 -311 -88q-198 0 -320 90q-120 88 -120 250zM279 -92q0 -90 69 -144q68 -53 199 -53q126 0 194 53q66 54 66 138q0 151 -167 151h-7h-209q-14 0 -76 4q-67 -52 -67 -149h-2zM348 694q0 -88 58 -143q54 -51 137 -51q82 0 139 51
q53 50 53 143q0 97 -53 150q-59 53 -139 53q-81 0 -137 -53q-56 -56 -56 -150h-2z" />
    <glyph glyph-name="h" unicode="h" horiz-adv-x="1198"
d="M188 0v1450h172v-610q49 94 146 151q94 58 215 58q146 0 221 -84q82 -88 82 -248v-717h-172v682q0 211 -178 211q-123 0 -217 -125q-97 -126 -97 -330v-438h-172z" />
    <glyph glyph-name="i" unicode="i" horiz-adv-x="552"
d="M147 1319q0 55 37 92q36 39 92 39t95 -39q37 -37 37 -92q0 -53 -37 -90q-40 -37 -95 -37t-92 37t-37 90zM190 0v1032h172v-1032h-172z" />
    <glyph glyph-name="j" unicode="j" horiz-adv-x="552"
d="M6 -270q103 28 144 75q45 48 45 158v1069h172v-1085q0 -160 -82 -254q-83 -100 -234 -127zM147 1319q0 55 37 92q39 39 95 39t92 -39q37 -37 37 -92q0 -53 -37 -90t-92 -37t-95 37q-37 37 -37 90z" />
    <glyph glyph-name="k" unicode="k" horiz-adv-x="1046"
d="M188 0v1450h172v-850l402 432h221l-438 -473l471 -559h-219l-437 518v-518h-172z" />
    <glyph glyph-name="l" unicode="l" horiz-adv-x="528"
d="M184 0v1450h172v-1450h-172z" />
    <glyph glyph-name="m" unicode="m" horiz-adv-x="1765"
d="M186 1032h172v-188q103 207 322 207q104 0 178 -58q75 -59 98 -159q114 215 336 215q140 0 215 -84q76 -85 76 -238v-727h-172v690q0 203 -166 203q-115 0 -194 -125q-78 -132 -78 -344v-424h-172v690q0 203 -166 203q-118 0 -197 -125q-78 -127 -78 -344v-424h-172z" />
    <glyph glyph-name="n" unicode="n" horiz-adv-x="1181"
d="M188 0v1032h172v-190q116 207 342 207q143 0 224 -84q80 -83 80 -238v-727h-172v682q0 211 -179 211q-122 0 -209 -127q-86 -127 -86 -334v-432h-172z" />
    <glyph glyph-name="o" unicode="o" horiz-adv-x="1230"
d="M111 516q0 218 135 377q138 156 360 156q223 0 361 -156q137 -161 137 -377q0 -220 -137 -375q-134 -155 -361 -155q-224 0 -358 155q-137 155 -137 375zM287 514q0 -155 84 -264q85 -113 235 -113q151 0 236 113q84 113 84 264q0 153 -84 266q-87 113 -236 113
q-148 0 -235 -113q-84 -109 -84 -264v-2z" />
    <glyph glyph-name="p" unicode="p" horiz-adv-x="1230"
d="M186 1034h172v-127q38 59 123 101q85 43 178 43q219 0 340 -148q119 -150 119 -387q0 -241 -119 -387q-118 -145 -337 -145q-91 0 -183 45q-95 50 -119 94v-541h-172zM344 518q0 -166 80 -272q79 -107 219 -107q135 0 217 107q82 104 82 272q0 169 -82 273t-217 104
q-140 0 -219 -104q-80 -106 -80 -273z" />
    <glyph glyph-name="q" unicode="q" horiz-adv-x="1230"
d="M111 514q0 245 118 387q118 148 338 148q91 0 178 -41q85 -43 123 -103v127h172v-1450h-172v541q-25 -46 -116 -94q-95 -45 -185 -45q-220 0 -338 145t-118 387v-2zM287 514q0 -168 82 -272q83 -105 217 -105q140 0 219 105q80 110 80 272q0 164 -80 274
q-79 105 -219 105q-134 0 -217 -105q-82 -104 -82 -274z" />
    <glyph glyph-name="r" unicode="r" horiz-adv-x="845"
d="M186 1030h172v-176q47 86 134 141q88 54 172 54t141 -31l-35 -154q-63 29 -121 29q-118 0 -203 -131q-86 -133 -86 -371v-391h-172z" />
    <glyph glyph-name="s" unicode="s" horiz-adv-x="944"
d="M104 262l142 78q83 -203 239 -203q166 0 166 162q0 53 -49 88q-48 36 -117 64q-61 21 -139 59q-69 31 -119 96q-49 64 -49 158q0 122 84 203q82 82 219 82q187 0 299 -158l-116 -100q-94 102 -189 102q-53 0 -90 -37q-35 -35 -35 -94q0 -51 49 -88q45 -37 121 -66
q70 -24 142 -59q69 -34 118 -92q49 -61 49 -146q0 -153 -92 -239q-88 -88 -248 -88q-145 0 -243 79q-99 79 -142 199z" />
    <glyph glyph-name="t" unicode="t" horiz-adv-x="774"
d="M51 877v155h178v309l172 109v-418h271v-155h-271v-568q0 -80 35 -127q37 -43 103 -43q69 0 116 33l41 -149q-70 -39 -168 -39q-136 0 -219 86q-80 86 -80 254v553h-178z" />
    <glyph glyph-name="u" unicode="u" horiz-adv-x="1181"
d="M176 305v725h172v-682q0 -211 178 -211q121 0 207 127q88 128 88 334v432h172v-1030h-172v188q-116 -204 -336 -204h-6q-142 0 -223 84q-80 83 -80 237z" />
    <glyph glyph-name="v" unicode="v" horiz-adv-x="933"
d="M39 1032h176l252 -813l252 813h176l-340 -1032h-176z" />
    <glyph glyph-name="w" unicode="w" horiz-adv-x="1511"
d="M76 1032h180l211 -792l203 792h172l202 -792l211 792h181l-314 -1032h-164l-202 784l-203 -784h-164z" />
    <glyph glyph-name="x" unicode="x" horiz-adv-x="937"
d="M37 0l334 545l-301 487h200l199 -325l199 325h200l-301 -487l334 -545h-201l-231 383l-231 -383h-201z" />
    <glyph glyph-name="y" unicode="y" horiz-adv-x="942"
d="M31 1032h188l262 -745l256 745h181l-512 -1450h-177l164 461z" />
    <glyph glyph-name="z" unicode="z" horiz-adv-x="933"
d="M102 0v74l488 803h-461v155h692v-74l-489 -802h508v-156h-738z" />
    <glyph glyph-name="braceleft" unicode="{" horiz-adv-x="651"
d="M127 639v152q90 0 127 34q37 37 37 129v373q0 92 55 150q57 57 150 57h98v-158h-47q-52 0 -72 -20q-20 -23 -20 -70v-371q0 -93 -37 -139q-41 -44 -111 -59q70 -18 111 -62q37 -43 37 -139v-371q0 -49 20 -69q23 -23 72 -23h47v-153h-98q-93 0 -148 55q-57 54 -57 147
v373q0 92 -35 127q-37 37 -129 37z" />
    <glyph glyph-name="bar" unicode="|" horiz-adv-x="561"
d="M199 -102v1638h163v-1638h-163z" />
    <glyph glyph-name="braceright" unicode="}" horiz-adv-x="651"
d="M57 53l43 -4q49 0 72 23t23 69v371q0 97 36 139q36 45 111 64q-72 18 -109 61q-36 42 -36 142v368q0 49 -23 72q-17 20 -70 20h-47v158h99q90 0 147 -57q55 -58 55 -150v-373q0 -90 37 -127q37 -34 127 -34v-156q-90 0 -127 -37t-37 -129v-373q0 -90 -55 -145
q-54 -57 -147 -57h-99v155z" />
    <glyph glyph-name="asciitilde" unicode="~" horiz-adv-x="1286"
d="M162 649q47 84 117 133q77 52 153 52q86 0 209 -52q117 -51 188 -51q116 0 193 92l100 -104q-50 -89 -114 -131q-70 -49 -154 -49q-92 0 -209 51t-188 51q-116 0 -193 -92l-100 102z" />
    <glyph glyph-name="uni00A0" unicode="&#xa0;" horiz-adv-x="548"
 />
    <glyph glyph-name="cent" unicode="&#xa2;" horiz-adv-x="1146"
d="M123 715q0 203 100 350q104 150 287 176v293h164v-291q244 -35 350 -280l-150 -62q-80 189 -282 189q-143 0 -217 -105q-76 -104 -76 -268q0 -167 76 -271q73 -104 217 -104q202 0 282 188l150 -61q-110 -246 -350 -281v-290h-164v292q-182 26 -287 177
q-100 147 -100 350v-2z" />
    <glyph glyph-name="sterling" unicode="&#xa3;" horiz-adv-x="1112"
d="M86 111q119 110 174 206q53 95 53 195q0 64 -20 152h-166v161h109q-37 110 -37 211q0 190 108 301q110 113 287 113q142 0 248 -74q103 -72 153 -211l-151 -69q-46 101 -105 145q-58 43 -143 43q-99 0 -160 -61q-63 -63 -63 -187q0 -114 33 -209h335v-163h-282
q14 -60 14 -129q0 -208 -162 -363q82 55 181 55q60 0 137 -41q74 -39 114 -39q50 0 97 29q37 25 90 111l135 -74q-125 -229 -309 -229q-85 0 -178 41t-138 41q-121 0 -231 -82l-117 127h-6z" />
    <glyph glyph-name="yen" unicode="&#xa5;" horiz-adv-x="1032"
d="M23 1434h198l295 -619l295 619h199l-322 -641h238v-164h-320v-164h320v-164h-320v-301h-180v301h-320v164h320v164h-320v164h238z" />
    <glyph glyph-name="dieresis" unicode="&#xa8;" horiz-adv-x="653"
d="M41 1333q0 52 35 84q33 33 80 33q51 0 84 -33q32 -32 32 -84q0 -50 -32 -82t-84 -32q-48 0 -80 32q-35 32 -35 82zM381 1333q0 52 35 84q33 33 80 33q51 0 84 -33q32 -32 32 -84q0 -50 -32 -82t-84 -32q-48 0 -80 32q-35 32 -35 82z" />
    <glyph glyph-name="copyright" unicode="&#xa9;" horiz-adv-x="1843"
d="M143 717q0 339 222 569q220 230 555 230t555 -230q223 -231 223 -569q0 -339 -223 -570q-221 -229 -555 -229t-555 229q-222 230 -222 570zM307 715q0 -274 170 -459q169 -184 445 -184q272 0 444 184q170 185 170 459t-170 459q-174 186 -444 186q-276 0 -445 -184
q-170 -185 -170 -459v-2zM520 713q0 217 121 329q122 113 283 113q136 0 229 -72q98 -70 125 -194l-143 -35q-53 160 -211 160q-109 0 -179 -76q-69 -69 -69 -223t69 -226q67 -73 179 -73q158 0 211 159l143 -34q-28 -128 -125 -197q-97 -72 -229 -72q-161 0 -283 113
q-121 115 -121 330v-2z" />
    <glyph glyph-name="guillemotleft" unicode="&#xab;" horiz-adv-x="1251"
d="M98 571v127l568 408v-184l-400 -287l400 -287v-184zM569 571v127l568 408v-184l-400 -287l400 -287v-184z" />
    <glyph glyph-name="uni00AD" unicode="&#xad;" horiz-adv-x="985"
d="M145 573v152h695v-152h-695z" />
    <glyph glyph-name="registered" unicode="&#xae;" horiz-adv-x="1843"
d="M143 717q0 339 222 569q220 230 555 230t555 -230q223 -231 223 -569q0 -339 -223 -570q-221 -229 -555 -229t-555 229q-222 230 -222 570zM307 715q0 -274 170 -459q169 -184 445 -184q272 0 444 184q170 185 170 459t-170 459q-174 186 -444 186q-276 0 -445 -184
q-170 -185 -170 -459v-2zM635 279v872h311q134 0 203 -66q70 -70 70 -184q0 -92 -56 -160q-52 -63 -137 -82l260 -380h-168l-258 372h-78v-372h-147zM780 797l164 -2q125 0 125 106q0 109 -125 109h-164v-213z" />
    <glyph glyph-name="acute" unicode="&#xb4;" horiz-adv-x="466"
d="M41 1147l139 295h248l-248 -295h-139z" />
    <glyph glyph-name="cedilla" unicode="&#xb8;" horiz-adv-x="405"
d="M20 -389l222 266h143l-170 -358z" />
    <glyph glyph-name="guillemotright" unicode="&#xbb;" horiz-adv-x="1251"
d="M115 164v184l399 287l-399 287v184l567 -408v-127zM586 164v184l399 287l-399 287v184l567 -408v-127z" />
    <glyph glyph-name="circumflex" unicode="&#x2c6;" horiz-adv-x="798"
d="M59 1159l314 336h53l313 -336h-176l-164 174l-163 -174h-177z" />
    <glyph glyph-name="ring" unicode="&#x2da;" horiz-adv-x="479"
d="M37 1335q0 88 57 148q59 59 146 59t143 -59q57 -60 57 -146q0 -84 -57 -141q-55 -55 -143 -55t-146 55q-57 57 -57 141v-2zM152 1335q0 -38 22 -63q25 -25 64 -25t63 27q25 25 25 63q0 42 -25 70q-27 27 -63 27q-37 0 -64 -27q-22 -28 -22 -70v-2z" />
    <glyph glyph-name="tilde" unicode="&#x2dc;" horiz-adv-x="796"
d="M35 1278q39 71 96 113q58 43 125 43q71 0 145 -41t121 -41q77 0 135 73l101 -79q-38 -68 -96 -111t-123 -43q-74 0 -148 41t-119 41q-76 0 -135 -74l-100 78h-2z" />
    <glyph glyph-name="uni0400" unicode="&#x400;" horiz-adv-x="1159"
d="M199 0v1434h823v-172h-643v-412h520v-172h-520v-506h663v-172h-843zM360 1843h248l140 -295h-140z" />
    <glyph glyph-name="afii10023" unicode="&#x401;" horiz-adv-x="1159"
d="M199 0v1434h823v-172h-643v-412h520v-172h-520v-506h663v-172h-843zM336 1735h2q0 49 33 82q28 32 80 32t84 -32t32 -82t-32 -82q-33 -33 -84 -33q-47 0 -80 33q-35 32 -35 82zM678 1733q0 51 33 84q37 32 82 32q47 0 84 -32q32 -37 32 -82q0 -50 -32 -82
q-33 -33 -84 -33q-49 0 -82 33q-33 29 -33 82v-2z" />
    <glyph glyph-name="afii10051" unicode="&#x402;" horiz-adv-x="1462"
d="M31 1262l4 170h1005v-172h-411v-422q50 95 143 153q99 58 213 58q141 0 221 -86t80 -246v-352q0 -158 -82 -256q-78 -97 -233 -125l-45 161q96 26 143 76q45 51 45 160v301q0 211 -178 211q-124 0 -215 -125q-96 -131 -96 -330v-438h-181v1262h-413z" />
    <glyph glyph-name="afii10052" unicode="&#x403;" horiz-adv-x="1079"
d="M199 0v1434h852v-172h-672v-1262h-180zM469 1548l139 295h248l-248 -295h-139z" />
    <glyph glyph-name="afii10053" unicode="&#x404;" horiz-adv-x="1386"
d="M113 717q0 339 170 536t432 197q211 0 368 -121q155 -122 207 -313l-174 -51q-47 159 -149 233q-109 80 -254 80q-186 0 -291 -123q-106 -124 -121 -352h676v-172h-676q15 -231 121 -355q105 -120 293 -120q152 0 254 77q103 78 147 234l174 -51q-49 -193 -207 -314
q-150 -118 -368 -118q-263 0 -432 196q-170 197 -170 537z" />
    <glyph glyph-name="afii10054" unicode="&#x405;" horiz-adv-x="1071"
d="M82 371l156 94q41 -145 108 -227q70 -82 199 -82q125 0 192 82q58 71 58 170q0 91 -70 155q-69 60 -201 123q-89 44 -135 70q-44 23 -106 78q-56 47 -80 108q-27 62 -27 141q0 156 107 263q104 104 247 104q146 0 232 -59q89 -67 141 -170l-143 -95q-54 92 -105 119
q-50 33 -125 33q-72 0 -122 -53q-50 -56 -50 -125q0 -47 19 -90q14 -39 65 -74q34 -27 80 -55q35 -18 113 -58q54 -26 98 -51q39 -22 88 -59q51 -39 82 -78q30 -41 51 -96q21 -59 21 -125q0 -173 -111 -293q-123 -135 -319 -135q-175 0 -299 106q-127 112 -164 279z" />
    <glyph glyph-name="afii10055" unicode="&#x406;" horiz-adv-x="577"
d="M199 0v1434h180v-1434h-180z" />
    <glyph glyph-name="afii10056" unicode="&#x407;" horiz-adv-x="577"
d="M4 1735q0 50 35 82q32 32 80 32q52 0 84 -32q33 -33 33 -82t-33 -82t-84 -33q-47 0 -80 33q-35 32 -35 82zM199 0v1434h180v-1434h-180zM344 1733q0 52 35 84q37 32 80 32q47 0 84 -32q32 -32 32 -82q0 -54 -32 -82q-33 -33 -84 -33q-47 0 -80 33q-35 28 -35 82v-2z" />
    <glyph glyph-name="afii10057" unicode="&#x408;" horiz-adv-x="1042"
d="M23 358l180 37q52 -242 252 -239q237 0 237 293v985h180v-996q0 -215 -116 -334q-117 -120 -299 -120q-189 0 -295 106q-109 106 -139 268z" />
    <glyph glyph-name="afii10058" unicode="&#x409;" horiz-adv-x="1861"
d="M27 0l2 172q99 0 153 45q60 51 66 170l76 1047h651v-586h330q207 0 327 -111q119 -113 119 -311q0 -195 -119 -311q-121 -115 -327 -115h-510v1262h-306l-63 -881q-24 -381 -399 -381zM977 172h303q287 0 287 254q0 127 -72 190q-72 60 -215 60h-303v-504z" />
    <glyph glyph-name="afii10059" unicode="&#x40a;" horiz-adv-x="1951"
d="M199 0v1434h180v-586h506v586h180v-586h330q208 0 325 -111q119 -110 119 -311q0 -197 -117 -311q-121 -115 -327 -115h-510v676h-506v-676h-180zM1065 172h301q289 0 289 254q0 127 -72 190q-72 60 -217 60h-301v-504z" />
    <glyph glyph-name="afii10060" unicode="&#x40b;" horiz-adv-x="1462"
d="M31 1262l2 172h1007v-172h-413v-422q49 94 143 151q94 58 213 58q145 0 223 -84q80 -86 80 -248v-717h-172v682q0 211 -178 211q-124 0 -215 -125q-96 -131 -96 -330v-438h-181v1262h-413z" />
    <glyph glyph-name="afii10061" unicode="&#x40c;" horiz-adv-x="1222"
d="M199 0v1434h180v-576l534 576h230l-582 -643l631 -791h-229l-584 723v-723h-180zM483 1548l140 295h247l-247 -295h-140z" />
    <glyph glyph-name="uni040D" unicode="&#x40d;" horiz-adv-x="1435"
d="M199 0h211l647 1116v-1116h180v1434h-211l-647 -1121v1121h-180v-1434zM442 1843h248l139 -295h-139z" />
    <glyph glyph-name="afii10062" unicode="&#x40e;" horiz-adv-x="1034"
d="M10 1434h189l319 -789l318 789h188l-594 -1450h-176l172 432zM295 1835l137 -2q0 -42 27 -66q21 -24 63 -24t66 24q24 27 24 68h138q0 -96 -64 -160q-63 -63 -164 -63q-96 0 -162 63q-65 65 -65 160z" />
    <glyph glyph-name="afii10145" unicode="&#x40f;" horiz-adv-x="1413"
d="M199 0v1434h180v-1262h655v1262h180v-1434h-417v-254h-181v254h-417z" />
    <glyph glyph-name="afii10017" unicode="&#x410;"
d="M25 0l495 1434h172l496 -1434h-180l-127 383h-549l-127 -383h-180zM389 555h434l-217 645z" />
    <glyph glyph-name="afii10018" unicode="&#x411;" horiz-adv-x="1265"
d="M199 0v1436h819v-172h-639v-412h330q206 0 325 -113t119 -313q0 -197 -117 -311q-121 -115 -327 -115h-510zM379 172h303q287 0 287 254t-287 254h-303v-508z" />
    <glyph glyph-name="afii10019" unicode="&#x412;" horiz-adv-x="1265"
d="M197 1434h483q189 0 295 -97q108 -99 108 -270q0 -92 -45 -168q-48 -76 -116 -115q105 -42 170 -135q61 -91 61 -223q0 -197 -117 -311q-121 -115 -327 -115h-510zM377 172h303q287 0 287 254q0 252 -287 252h-303v-506zM377 850h291q106 0 166 51q61 52 61 154
q0 98 -61 153q-63 54 -164 54h-293v-412z" />
    <glyph glyph-name="afii10020" unicode="&#x413;" horiz-adv-x="1073"
d="M199 0v1434h852v-172h-672v-1262h-180z" />
    <glyph glyph-name="afii10021" unicode="&#x414;" horiz-adv-x="1415"
d="M127 172h115l211 1262h759v-1262h129l-24 -426h-172v254h-821v-254h-172zM426 172h606v1090h-428z" />
    <glyph glyph-name="afii10022" unicode="&#x415;" horiz-adv-x="1159"
d="M199 0v1434h823v-172h-643v-412h520v-172h-520v-506h663v-172h-843z" />
    <glyph glyph-name="afii10024" unicode="&#x416;" horiz-adv-x="1867"
d="M31 0l631 791l-582 643h229l535 -576v576h180v-576l535 576h229l-582 -643l631 -791h-229l-584 723v-723h-180v723l-584 -723h-229z" />
    <glyph glyph-name="afii10025" unicode="&#x417;" horiz-adv-x="1183"
d="M125 393l172 23q38 -271 285 -271q126 0 206 80q78 81 78 224q0 144 -78 225q-83 80 -206 80q-67 0 -127 -29l-72 96l328 449h-518v164h778v-58l-367 -491q18 6 60 6q164 0 272 -123q106 -121 106 -317q0 -206 -129 -338q-129 -129 -331 -129q-183 0 -310 112
q-129 111 -147 297z" />
    <glyph glyph-name="afii10026" unicode="&#x418;" horiz-adv-x="1435"
d="M199 0v1434h180v-1121l647 1121h211v-1434h-180v1116l-647 -1116h-211z" />
    <glyph glyph-name="afii10027" unicode="&#x419;" horiz-adv-x="1435"
d="M199 0h211l647 1116v-1116h180v1434h-211l-647 -1121v1121h-180v-1434zM489 1835l138 -2q0 -42 24 -66t66 -24q41 0 65 24q25 28 25 68h135q0 -97 -63 -160t-162 -63t-162 63q-66 66 -66 160z" />
    <glyph glyph-name="afii10028" unicode="&#x41a;" horiz-adv-x="1222"
d="M199 0v1434h180v-576l534 576h230l-582 -643l631 -791h-229l-584 723v-723h-180z" />
    <glyph glyph-name="afii10029" unicode="&#x41b;" horiz-adv-x="1316"
d="M27 0l2 172q99 0 153 45q60 51 66 170l76 1047h794v-1434h-180v1262h-449l-63 -881q-24 -381 -399 -381z" />
    <glyph glyph-name="afii10030" unicode="&#x41c;" horiz-adv-x="1605"
d="M199 0v1434h221l383 -1010l383 1010h221v-1434h-180v1044l-361 -913h-127l-360 913v-1044h-180z" />
    <glyph glyph-name="afii10031" unicode="&#x41d;" horiz-adv-x="1413"
d="M199 0v1434h180v-586h655v586h180v-1434h-180v676h-655v-676h-180z" />
    <glyph glyph-name="afii10032" unicode="&#x41e;" horiz-adv-x="1511"
d="M113 717q0 344 186 536q188 197 457 197t454 -197q187 -193 187 -536q0 -344 -187 -537q-182 -194 -454 -194t-457 194q-186 192 -186 537zM297 715q0 -269 129 -416q125 -143 328 -143q201 0 329 143q127 148 127 416q0 270 -127 415q-130 148 -327 148
q-200 0 -330 -145q-127 -148 -127 -416z" />
    <glyph glyph-name="afii10033" unicode="&#x41f;" horiz-adv-x="1413"
d="M199 0v1434h1015v-1434h-180v1262h-655v-1262h-180z" />
    <glyph glyph-name="afii10034" unicode="&#x420;" horiz-adv-x="1196"
d="M197 1434h499q203 0 314 -111q112 -109 112 -299q0 -189 -110 -299q-114 -111 -314 -111h-319v-614h-180zM377 786l330 -2q111 0 170 62t59 178q0 114 -59 176q-62 62 -170 62h-330v-476z" />
    <glyph glyph-name="afii10035" unicode="&#x421;" horiz-adv-x="1409"
d="M111 719q0 350 188 541q190 190 459 190q218 0 364 -119q148 -121 197 -313l-174 -51q-102 313 -387 313q-205 0 -332 -145q-129 -147 -129 -416q0 -272 129 -416q127 -145 332 -145q285 0 387 313l174 -51q-50 -196 -197 -316q-145 -118 -362 -118q-269 0 -459 190
q-188 194 -188 541z" />
    <glyph glyph-name="afii10036" unicode="&#x422;" horiz-adv-x="1069"
d="M31 1262v172h1007v-172h-413v-1262h-181v1262h-413z" />
    <glyph glyph-name="afii10037" unicode="&#x423;" horiz-adv-x="1034"
d="M10 1434h189l319 -789l318 789h188l-594 -1450h-176l172 432z" />
    <glyph glyph-name="afii10038" unicode="&#x424;" horiz-adv-x="1585"
d="M106 717q0 250 164 409q162 158 416 158h16v150h181v-150h16q254 0 416 -158q164 -159 164 -409q0 -248 -164 -412q-165 -160 -416 -160h-16v-145h-181v145h-16q-251 0 -416 160q-164 164 -164 412zM293 715q0 -173 108 -287q108 -111 281 -111h20v795h-20
q-173 0 -281 -111t-108 -284v-2zM883 317h20q173 0 283 113q106 112 106 287t-106 284q-111 111 -283 111h-20v-795z" />
    <glyph glyph-name="afii10039" unicode="&#x425;" horiz-adv-x="1179"
d="M35 0l452 770l-389 664h207l285 -488l284 488h207l-389 -664l453 -770h-207l-348 594l-348 -594h-207z" />
    <glyph glyph-name="afii10040" unicode="&#x426;" horiz-adv-x="1427"
d="M199 0v1434h180v-1262h655v1262h180v-1262h140l-25 -426h-172v254h-958z" />
    <glyph glyph-name="afii10041" unicode="&#x427;" horiz-adv-x="1335"
d="M168 864l2 570h178v-539q0 -174 76 -250q72 -72 219 -72q180 0 313 148v713h181v-1434h-181v514q-149 -113 -358 -113q-430 0 -430 463z" />
    <glyph glyph-name="afii10042" unicode="&#x428;" horiz-adv-x="2002"
d="M199 0v1434h180v-1262h532v1262h181v-1262h532v1262h180v-1434h-1605z" />
    <glyph glyph-name="afii10043" unicode="&#x429;" horiz-adv-x="2017"
d="M199 0v1434h180v-1262h532v1262h181v-1262h532v1262h180v-1262h140l-25 -426h-172v254h-1548z" />
    <glyph glyph-name="afii10044" unicode="&#x42a;" horiz-adv-x="1366"
d="M37 1262v174h440v-584h332q207 0 326 -113q118 -112 118 -313q0 -198 -116 -311q-121 -115 -328 -115h-510v1262h-262zM477 172h303q287 0 287 254t-287 254h-303v-508z" />
    <glyph glyph-name="afii10045" unicode="&#x42b;" horiz-adv-x="1722"
d="M199 0v1436h180v-584h330q206 0 325 -113t119 -313q0 -197 -117 -311q-121 -115 -327 -115h-510zM379 172h303q287 0 287 254t-287 254h-303v-508zM1352 0v1450h172v-1450h-172z" />
    <glyph glyph-name="afii10046" unicode="&#x42c;" horiz-adv-x="1265"
d="M199 0v1436h180v-584h330q206 0 325 -113t119 -313q0 -197 -117 -311q-121 -115 -327 -115h-510zM379 172h303q287 0 287 254t-287 254h-303v-508z" />
    <glyph glyph-name="afii10047" unicode="&#x42d;" horiz-adv-x="1380"
d="M88 418l174 51q47 -158 150 -236q106 -77 256 -77q185 0 290 123q103 117 121 354h-676v172h676q-18 231 -121 352q-108 123 -290 123q-150 0 -256 -80q-103 -78 -150 -233l-174 51q53 195 209 313q155 119 369 119q264 0 432 -195q170 -197 170 -536q0 -342 -170 -539
q-167 -194 -432 -194q-216 0 -369 118q-156 117 -209 314z" />
    <glyph glyph-name="afii10048" unicode="&#x42e;" horiz-adv-x="2095"
d="M199 0l2 1432h180v-631h315q27 307 209 477t434 170q268 0 457 -195q186 -198 186 -536q0 -341 -186 -539q-188 -194 -457 -194q-252 0 -436 172q-183 171 -207 475h-317v-631h-180zM883 713q0 -269 127 -414t329 -145q204 0 328 145q129 144 129 414q0 271 -129 415
q-127 148 -328 148q-196 0 -327 -146q-127 -148 -127 -415z" />
    <glyph glyph-name="afii10049" unicode="&#x42f;" horiz-adv-x="1312"
d="M86 0l428 688q-141 27 -219 123q-80 95 -80 244q0 175 115 278q113 101 307 101h477v-1434h-180v676h-215l-420 -676h-213zM401 1055q0 -207 232 -207h301v414h-301q-232 0 -232 -207z" />
    <glyph glyph-name="afii10065" unicode="&#x430;" horiz-adv-x="1060"
d="M115 297h2q0 165 125 250q127 88 342 88h168v45q0 213 -228 213q-80 0 -141 -43q-60 -47 -74 -121l-151 35q18 129 121 207q98 76 245 76q180 0 289 -97q109 -93 109 -293v-657h-136l-28 143q-116 -162 -324 -159q-143 0 -229 77q-90 78 -90 236zM293 297q0 -74 43 -117
t127 -43q116 0 203 78q86 77 86 240v22h-187q-133 0 -200 -47q-72 -46 -72 -133z" />
    <glyph glyph-name="afii10066" unicode="&#x431;" horiz-adv-x="1040"
d="M109 637q0 799 520 799h96q62 0 100 20q32 19 47 76h113q0 -252 -252 -252h-115q-144 0 -229 -102q-88 -105 -94 -271q145 142 350 142q197 0 328 -158q127 -157 127 -375q0 -221 -135 -377q-137 -155 -361 -155q-234 0 -364 168q-129 170 -129 483zM285 516
q0 -155 84 -264q85 -113 235 -113q151 0 236 113q84 113 84 264q0 153 -84 266q-87 113 -236 113q-148 0 -235 -113q-84 -109 -84 -264v-2z" />
    <glyph glyph-name="afii10067" unicode="&#x432;" horiz-adv-x="1040"
d="M188 0l2 1030h400q132 0 213 -69q84 -69 84 -187q0 -138 -117 -211q160 -80 160 -250q0 -134 -94 -225q-94 -88 -240 -88h-408zM362 154h220q172 0 172 157q0 158 -172 158h-220v-315zM362 625l220 -2q65 0 100 32q37 34 37 93q0 60 -37 94q-40 32 -100 32h-220v-249z
" />
    <glyph glyph-name="afii10068" unicode="&#x433;" horiz-adv-x="878"
d="M188 0v1032h654v-155h-482v-877h-172z" />
    <glyph glyph-name="afii10069" unicode="&#x434;" horiz-adv-x="1177"
d="M88 156h70l143 876h705v-876h69l-22 -389h-152v233h-635v-233h-151zM317 156h517v721h-406z" />
    <glyph glyph-name="afii10070" unicode="&#x435;" horiz-adv-x="1146"
d="M111 516q0 223 120 379q124 154 347 154q218 0 342 -142q122 -143 122 -348v-80h-757q9 -154 84 -246q73 -94 209 -94q109 0 174 47q67 49 110 150l154 -68q-76 -155 -176 -219q-101 -65 -262 -65q-225 0 -345 153q-122 155 -122 379zM297 635l567 -2q-24 116 -96 188
t-190 72q-114 0 -187 -70q-71 -71 -94 -188z" />
    <glyph glyph-name="afii10072" unicode="&#x436;" horiz-adv-x="1544"
d="M31 0l471 559l-439 473h222l401 -432v432h172v-432l402 432h221l-439 -473l471 -559h-219l-436 518v-518h-172v518l-436 -518h-219z" />
    <glyph glyph-name="afii10073" unicode="&#x437;" horiz-adv-x="909"
d="M111 283l168 18q9 -77 57 -119q51 -45 123 -45q77 0 131 51q51 51 51 134q0 89 -47 139q-51 51 -129 51q-49 0 -82 -16l-86 104l195 277h-330v153h590v-55l-256 -338q6 0 18 1t18 1q117 0 195 -90t78 -227q0 -147 -100 -240q-98 -98 -246 -98q-144 0 -238 82
q-95 83 -110 217z" />
    <glyph glyph-name="afii10074" unicode="&#x438;" horiz-adv-x="1204"
d="M188 0v1032h172v-762l476 762h180v-1032h-172v762l-475 -762h-181z" />
    <glyph glyph-name="afii10075" unicode="&#x439;" horiz-adv-x="1204"
d="M188 0v1032h172v-762l476 762h180v-1032h-172v762l-475 -762h-181zM375 1434h137q0 -42 27 -66q27 -27 63 -27q39 0 66 27q24 24 24 66h137q0 -95 -63 -158q-66 -66 -164 -66q-93 0 -162 66q-65 65 -65 158z" />
    <glyph glyph-name="afii10076" unicode="&#x43a;" horiz-adv-x="1046"
d="M188 0v1032h172v-432l402 432h221l-438 -473l471 -559h-219l-437 518v-518h-172z" />
    <glyph glyph-name="afii10077" unicode="&#x43b;" horiz-adv-x="1224"
d="M84 0v156q102 0 147 45q49 46 58 143l67 688h680v-1032h-172v877h-364l-62 -596q-15 -146 -100 -213q-89 -68 -254 -68z" />
    <glyph glyph-name="afii10078" unicode="&#x43c;" horiz-adv-x="1331"
d="M188 0v1032h209l269 -680l268 680h209v-1032h-172v721l-248 -627h-115l-248 627v-721h-172z" />
    <glyph glyph-name="afii10079" unicode="&#x43d;" horiz-adv-x="1163"
d="M188 0v1032h172v-405h443v405h172v-1032h-172v471h-443v-471h-172z" />
    <glyph glyph-name="afii10080" unicode="&#x43e;" horiz-adv-x="1159"
d="M111 516q0 218 135 377q138 156 360 156q223 0 361 -156q137 -161 137 -377q0 -220 -137 -375q-134 -155 -361 -155q-224 0 -358 155q-137 155 -137 375zM287 514q0 -155 84 -264q85 -113 235 -113q151 0 236 113q84 113 84 264q0 153 -84 266q-87 113 -236 113
q-148 0 -235 -113q-84 -109 -84 -264v-2z" />
    <glyph glyph-name="afii10081" unicode="&#x43f;" horiz-adv-x="1161"
d="M188 0v1032h785v-1032h-172v877h-441v-877h-172z" />
    <glyph glyph-name="afii10082" unicode="&#x440;" horiz-adv-x="1230"
d="M186 1034h172v-127q38 59 123 101q85 43 178 43q219 0 340 -148q119 -150 119 -387q0 -241 -119 -387q-118 -145 -337 -145q-91 0 -183 45q-95 50 -119 94v-541h-172zM344 518q0 -166 80 -272q79 -107 219 -107q135 0 217 107q82 104 82 272q0 169 -82 273t-217 104
q-140 0 -219 -104q-80 -106 -80 -273z" />
    <glyph glyph-name="afii10083" unicode="&#x441;" horiz-adv-x="1101"
d="M109 512q0 224 122 379q120 153 349 153q306 0 432 -284l-152 -62q-79 190 -280 193q-142 0 -220 -107q-73 -104 -73 -270t73 -270q76 -107 220 -107q201 0 282 193l150 -64q-124 -285 -432 -282q-227 0 -347 153q-122 155 -122 379z" />
    <glyph glyph-name="afii10084" unicode="&#x442;" horiz-adv-x="880"
d="M78 877v155h725v-155h-277v-877h-172v877h-276z" />
    <glyph glyph-name="afii10085" unicode="&#x443;" horiz-adv-x="942"
d="M31 1032h188l262 -745l256 745h181l-512 -1450h-177l164 461z" />
    <glyph glyph-name="afii10086" unicode="&#x444;" horiz-adv-x="1458"
d="M111 514q0 230 145 381q145 154 385 154v385h172v-385q242 0 387 -154q148 -154 148 -381q0 -224 -146 -379q-145 -151 -387 -151v-404h-172v404q-242 0 -387 151q-145 154 -145 381v-2zM287 512q0 -166 92 -272q87 -103 248 -103h14v754h-14q-159 0 -248 -103
q-92 -106 -92 -274v-2zM813 135h16q159 0 248 105q92 106 92 272q0 168 -92 274q-91 105 -248 105h-16v-756z" />
    <glyph glyph-name="afii10087" unicode="&#x445;" horiz-adv-x="937"
d="M37 0l334 545l-301 487h200l199 -325l199 325h200l-301 -487l334 -545h-201l-231 383l-231 -383h-201z" />
    <glyph glyph-name="afii10088" unicode="&#x446;" horiz-adv-x="1144"
d="M188 0v1032h172v-876h441v876h172v-876h69l-36 -389h-138v233h-680z" />
    <glyph glyph-name="afii10089" unicode="&#x447;" horiz-adv-x="1167"
d="M176 498v534h172v-504q0 -188 168 -188q161 0 291 213v479h172v-1032h-172v348q-136 -160 -342 -160q-136 0 -213 80q-76 79 -76 230z" />
    <glyph glyph-name="afii10090" unicode="&#x448;" horiz-adv-x="1691"
d="M188 0v1032h172v-876h400v876h172v-876h399v876h172v-1032h-1315z" />
    <glyph glyph-name="afii10091" unicode="&#x449;" horiz-adv-x="1675"
d="M188 0v1032h172v-876h400v876h172v-876h399v876h172v-876h70l-37 -389h-137v233h-1211z" />
    <glyph glyph-name="afii10092" unicode="&#x44a;" horiz-adv-x="1118"
d="M82 877v153h346v-391h234q158 0 253 -86q91 -88 91 -234q0 -145 -91 -233q-92 -86 -253 -86h-404v877h-176zM428 156l188 -2q113 0 164 39q51 36 51 124q0 89 -51 125q-48 39 -164 39h-188v-325z" />
    <glyph glyph-name="afii10093" unicode="&#x44b;" horiz-adv-x="1472"
d="M188 0v1030h172v-391h232q162 0 254 -86q90 -87 90 -234q0 -146 -90 -233q-89 -86 -254 -86h-404zM360 156l189 -2q113 0 164 39q51 36 51 124q0 89 -51 125q-48 39 -164 39h-189v-325zM1124 -2v1032h172v-1032h-172z" />
    <glyph glyph-name="afii10094" unicode="&#x44c;" horiz-adv-x="1048"
d="M188 0v1030h172v-391h232q162 0 254 -86q90 -87 90 -234q0 -146 -90 -233q-89 -86 -254 -86h-404zM360 156l189 -2q113 0 164 39q51 36 51 124q0 89 -51 125q-48 39 -164 39h-189v-325z" />
    <glyph glyph-name="afii10095" unicode="&#x44d;" horiz-adv-x="1112"
d="M90 254l143 78q41 -90 117 -142q76 -51 168 -51q135 0 211 82t94 217h-489v158h489q-19 137 -94 215q-75 84 -211 84q-92 0 -168 -51q-76 -49 -117 -142l-143 76q59 128 170 199q115 74 258 74q231 0 359 -156q124 -151 124 -379q0 -226 -124 -377q-126 -153 -359 -153
q-150 0 -260 71q-113 72 -168 197z" />
    <glyph glyph-name="afii10096" unicode="&#x44e;" horiz-adv-x="1648"
d="M186 1030h172v-436h193q24 195 156 324q131 131 333 131q224 0 361 -158q137 -155 137 -377q0 -219 -135 -375q-140 -155 -361 -155q-204 0 -335 131q-132 129 -156 323h-191v-438h-172zM723 512q0 -155 84 -264q85 -111 235 -111t236 111q84 113 84 266t-84 266
q-86 111 -236 111t-235 -111q-84 -109 -84 -266v-2z" />
    <glyph glyph-name="afii10097" unicode="&#x44f;" horiz-adv-x="995"
d="M57 0l267 473q-94 30 -152 100q-53 67 -53 175q0 128 90 206q93 78 240 78h358v-1032h-172v463h-156l-246 -463h-176zM283 745q0 -129 157 -129h195v258h-195q-157 0 -157 -129z" />
    <glyph glyph-name="uni0450" unicode="&#x450;" horiz-adv-x="1146"
d="M111 516q0 223 120 379q124 154 347 154q218 0 342 -142q122 -143 122 -348v-80h-757q9 -154 84 -246q73 -94 209 -94q109 0 174 47q67 49 110 150l154 -68q-76 -155 -176 -219q-101 -65 -262 -65q-225 0 -345 153q-122 155 -122 379zM297 635l567 -2q-24 116 -96 188
t-190 72q-114 0 -187 -70q-71 -71 -94 -188zM305 1440h250l137 -295h-137z" />
    <glyph glyph-name="afii10071" unicode="&#x451;" horiz-adv-x="1146"
d="M111 516q0 223 120 379q124 154 347 154q218 0 342 -142q122 -143 122 -348v-80h-757q9 -154 84 -246q73 -94 209 -94q109 0 174 47q67 49 110 150l154 -68q-76 -155 -176 -219q-101 -65 -262 -65q-225 0 -345 153q-122 155 -122 379zM293 1333q0 51 33 84t82 33
q51 0 84 -33q32 -37 32 -84q0 -45 -32 -82q-32 -32 -84 -32q-50 0 -82 32q-33 33 -33 82zM297 635l569 -2q-24 117 -98 188q-72 72 -188 72q-114 0 -187 -70q-73 -73 -96 -188zM635 1331h2q0 51 33 84q30 35 80 35q49 0 84 -35q32 -32 32 -84q0 -50 -32 -82t-84 -32
q-48 0 -80 32q-35 32 -35 82z" />
    <glyph glyph-name="afii10099" unicode="&#x452;" horiz-adv-x="1198"
d="M43 1171l2 140h145v139h172v-139h261v-142h-261v-329q51 98 146 151q94 58 215 58q143 0 221 -84q80 -86 80 -248v-770q0 -160 -82 -254q-83 -100 -233 -127l-45 164q99 28 143 75q45 51 45 158v719q0 211 -178 211q-123 0 -217 -125q-97 -126 -97 -330v-438h-172v1171
h-145z" />
    <glyph glyph-name="afii10100" unicode="&#x453;" horiz-adv-x="878"
d="M188 0v1032h654v-155h-482v-877h-172zM342 1147l139 295h248l-248 -295h-139z" />
    <glyph glyph-name="afii10101" unicode="&#x454;" horiz-adv-x="1112"
d="M111 512q0 224 125 379q126 153 358 153q150 0 260 -71q107 -71 168 -199l-143 -76q-41 89 -115 142q-79 51 -170 51q-132 0 -211 -82q-77 -83 -92 -217h487v-158h-487q15 -134 92 -217q79 -82 211 -82q91 0 170 51q74 53 115 142l143 -76q-62 -129 -168 -197
q-110 -71 -260 -71q-230 0 -356 153q-127 157 -127 379v-4z" />
    <glyph glyph-name="afii10102" unicode="&#x455;" horiz-adv-x="944"
d="M104 262l142 78q83 -203 239 -203q166 0 166 162q0 53 -49 88q-48 36 -117 64q-61 21 -139 59q-69 31 -119 96q-49 64 -49 158q0 122 84 203q82 82 219 82q187 0 299 -158l-116 -100q-94 102 -189 102q-53 0 -90 -37q-35 -35 -35 -94q0 -51 49 -88q45 -37 121 -66
q70 -24 142 -59q69 -34 118 -92q49 -61 49 -146q0 -153 -92 -239q-88 -88 -248 -88q-145 0 -243 79q-99 79 -142 199z" />
    <glyph glyph-name="afii10103" unicode="&#x456;" horiz-adv-x="552"
d="M147 1319q0 55 37 92q36 39 92 39t95 -39q37 -37 37 -92q0 -53 -37 -90q-40 -37 -95 -37t-92 37t-37 90zM190 0v1032h172v-1032h-172z" />
    <glyph glyph-name="afii10104" unicode="&#x457;" horiz-adv-x="552"
d="M-8 1333h2q0 51 33 84q29 33 79 33q51 0 84 -33t33 -84q0 -49 -33 -82q-32 -32 -86 -32q-47 0 -79 32q-33 33 -33 82zM190 0v1032h172v-1032h-172zM334 1333q0 51 33 84t79 33q55 0 84 -33q33 -33 33 -84q0 -49 -33 -82q-28 -32 -84 -32q-51 0 -79 32q-33 33 -33 82z" />
    <glyph glyph-name="afii10105" unicode="&#x458;" horiz-adv-x="552"
d="M6 -270q103 28 144 75q45 48 45 158v1069h172v-1085q0 -160 -82 -254q-83 -100 -234 -127zM147 1319q0 55 37 92q39 39 95 39t92 -39q37 -37 37 -92q0 -53 -37 -90t-92 -37t-95 37q-37 37 -37 90z" />
    <glyph glyph-name="afii10106" unicode="&#x459;" horiz-adv-x="1622"
d="M84 0v156q101 0 147 43q49 46 58 143l67 688h578v-391h231q162 0 254 -86q90 -87 90 -234q0 -146 -90 -233q-89 -86 -254 -86h-403v877h-262l-62 -596q-15 -146 -100 -213q-89 -68 -254 -68zM934 156l186 -2q113 0 164 39q51 36 51 124q0 89 -51 125q-48 39 -164 39h-186
v-325z" />
    <glyph glyph-name="afii10107" unicode="&#x45a;" horiz-adv-x="1662"
d="M188 0v1030h172v-391h443v391h172v-391h231q162 0 254 -86q90 -87 90 -234q0 -146 -90 -233q-89 -86 -254 -86h-403v483h-443v-483h-172zM975 156l188 -2q109 0 164 39q51 36 51 124q0 89 -51 125q-51 39 -164 39h-188v-325z" />
    <glyph glyph-name="afii10108" unicode="&#x45b;" horiz-adv-x="1198"
d="M43 1171v140h145v139h172v-139h263v-142h-263v-329q49 94 146 151q94 58 215 58q146 0 221 -84q82 -88 82 -248v-717h-172v682q0 211 -178 211q-123 0 -217 -125q-97 -126 -97 -330v-438h-172v1171h-145z" />
    <glyph glyph-name="afii10109" unicode="&#x45c;" horiz-adv-x="1046"
d="M188 0v1032h172v-432l402 432h221l-438 -473l471 -559h-219l-437 518v-518h-172zM434 1147l139 295h248l-248 -295h-139z" />
    <glyph glyph-name="uni045D" unicode="&#x45d;" horiz-adv-x="1204"
d="M188 0v1032h172v-762l476 762h180v-1032h-172v762l-475 -762h-181zM350 1442h248l139 -295h-139z" />
    <glyph glyph-name="afii10110" unicode="&#x45e;" horiz-adv-x="942"
d="M31 1032h188l262 -745l256 745h181l-512 -1450h-177l164 461zM254 1434h137q0 -42 27 -66q27 -27 63 -27q39 0 66 27q24 24 24 66h138q0 -94 -64 -158q-66 -66 -164 -66q-93 0 -162 66q-65 65 -65 158z" />
    <glyph glyph-name="afii10193" unicode="&#x45f;" horiz-adv-x="1167"
d="M188 0v1032h172v-876h447v876h172v-1032h-309v-233h-172v233h-310z" />
    <glyph glyph-name="uni2000" unicode="&#x2000;" horiz-adv-x="924"
 />
    <glyph glyph-name="uni2001" unicode="&#x2001;" horiz-adv-x="1849"
 />
    <glyph glyph-name="uni2002" unicode="&#x2002;" horiz-adv-x="924"
 />
    <glyph glyph-name="uni2003" unicode="&#x2003;" horiz-adv-x="1849"
 />
    <glyph glyph-name="uni2004" unicode="&#x2004;" horiz-adv-x="616"
 />
    <glyph glyph-name="uni2005" unicode="&#x2005;" horiz-adv-x="462"
 />
    <glyph glyph-name="uni2006" unicode="&#x2006;" horiz-adv-x="308"
 />
    <glyph glyph-name="uni2007" unicode="&#x2007;" horiz-adv-x="308"
 />
    <glyph glyph-name="uni2008" unicode="&#x2008;" horiz-adv-x="231"
 />
    <glyph glyph-name="uni2009" unicode="&#x2009;" horiz-adv-x="369"
 />
    <glyph glyph-name="uni200A" unicode="&#x200a;" horiz-adv-x="102"
 />
    <glyph glyph-name="uni2010" unicode="&#x2010;" horiz-adv-x="985"
d="M145 573v152h695v-152h-695z" />
    <glyph glyph-name="uni2011" unicode="&#x2011;" horiz-adv-x="985"
d="M145 573v152h695v-152h-695z" />
    <glyph glyph-name="figuredash" unicode="&#x2012;" horiz-adv-x="985"
d="M145 573v152h695v-152h-695z" />
    <glyph glyph-name="endash" unicode="&#x2013;" horiz-adv-x="1148"
d="M145 573v152h859v-152h-859z" />
    <glyph glyph-name="emdash" unicode="&#x2014;" horiz-adv-x="1554"
d="M145 573v152h1264v-152h-1264z" />
    <glyph glyph-name="quoteleft" unicode="&#x2018;" horiz-adv-x="612"
d="M119 1450h250l141 -420h-131z" />
    <glyph glyph-name="quoteright" unicode="&#x2019;" horiz-adv-x="612"
d="M102 1030l142 420h250l-261 -420h-131z" />
    <glyph glyph-name="quotesinglbase" unicode="&#x201a;" horiz-adv-x="612"
d="M102 -29l142 420h250l-261 -420h-131z" />
    <glyph glyph-name="quotedblleft" unicode="&#x201c;" horiz-adv-x="968"
d="M119 1450h250l141 -420h-131zM475 1450h250l141 -420h-131z" />
    <glyph glyph-name="quotedblright" unicode="&#x201d;" horiz-adv-x="968"
d="M102 1030l142 420h250l-261 -420h-131zM459 1030l141 420h250l-260 -420h-131z" />
    <glyph glyph-name="quotedblbase" unicode="&#x201e;" horiz-adv-x="968"
d="M102 -29l142 420h250l-261 -420h-131zM459 -29l141 420h250l-260 -420h-131z" />
    <glyph glyph-name="bullet" unicode="&#x2022;" horiz-adv-x="663"
d="M174 674q0 67 45 112q51 48 113 48q64 0 112 -48q45 -45 45 -110q0 -68 -45 -113q-47 -47 -112 -47q-63 0 -113 47q-45 45 -45 113v-2z" />
    <glyph glyph-name="ellipsis" unicode="&#x2026;" horiz-adv-x="1712"
d="M184 121q0 53 37 90q39 39 92 39q51 0 90 -39t39 -90q0 -56 -36 -92q-34 -37 -93 -37q-58 0 -92 37q-37 37 -37 92zM727 121q0 53 37 90q39 39 92 39q51 0 90 -39q39 -36 39 -90q0 -56 -39 -92q-34 -37 -90 -37q-58 0 -92 37q-37 37 -37 92zM1270 121h2q0 53 37 90
q36 39 92 39q48 0 90 -39q37 -37 37 -90q0 -55 -37 -92t-90 -37q-60 0 -94 37q-37 37 -37 92z" />
    <glyph glyph-name="uni202F" unicode="&#x202f;" horiz-adv-x="369"
 />
    <glyph glyph-name="guilsinglleft" unicode="&#x2039;" horiz-adv-x="780"
d="M98 571v127l568 408v-184l-400 -287l400 -287v-184z" />
    <glyph glyph-name="guilsinglright" unicode="&#x203a;" horiz-adv-x="780"
d="M115 164v184l399 287l-399 287v184l567 -408v-127z" />
    <glyph glyph-name="uni205F" unicode="&#x205f;" horiz-adv-x="462"
 />
    <glyph glyph-name="Euro" unicode="&#x20ac;" horiz-adv-x="1286"
d="M63 793l82 163h117q41 238 180 365q138 129 353 129q278 0 403 -233l-145 -80q-91 149 -258 149q-296 0 -361 -330h486l-82 -163h-418v-152h500l-82 -164h-404q61 -330 361 -330q167 0 258 150l145 -80q-125 -233 -401 -233q-215 0 -353 129q-140 128 -180 364h-198
l79 164h103v152h-185z" />
    <glyph glyph-name="trademark" unicode="&#x2122;" horiz-adv-x="1683"
d="M57 1311v123h576v-123h-215v-697h-146v697h-215zM782 614v820h152l215 -539l215 539h152v-820h-146v519l-178 -443h-86l-178 443v-519h-146z" />
    <glyph glyph-name="uni25FC" unicode="&#x25fc;" horiz-adv-x="1034"
d="M0 0v1034h1034v-1034h-1034z" />
    <glyph glyph-name="uni2318" unicode="&#x2318;" horiz-adv-x="1591"
d="M1057 512h160q104 0 180 -76t76 -180t-76 -180t-180 -76q-113 0 -184.5 76t-71.5 180v160h-322v-160q0 -104 -76 -180t-178 -76q-104 0 -181 76t-77 180t77 180t181 76h160v311h-160q-104 0 -181 77t-77 179q0 113 77 184.5t181 71.5q102 0 178 -71.5t76 -184.5v-151h322
v151q0 113 71.5 184.5t184.5 71.5q104 0 180 -71.5t76 -184.5q0 -102 -76 -179t-180 -77h-160v-311zM1057 928h160q63 0 107 44t44 107q0 72 -44 116t-107 44q-72 0 -116 -44t-44 -116v-151zM545 928v151q0 72 -48 116t-112 44q-66 0 -114 -44t-48 -116q0 -63 48 -107
t114 -44h160zM961 512v311h-322v-311h322zM1057 416v-160q0 -63 47 -111.5t113 -48.5q63 0 107 48.5t44 111.5t-44 111.5t-107 48.5h-160zM545 256v160h-160q-66 0 -114 -48.5t-48 -111.5t48 -111.5t114 -48.5q64 0 112 48.5t48 111.5z" />
    <glyph glyph-name="uni238B" unicode="&#x238b;" horiz-adv-x="2142"
d="M1071 -289q-270 0 -498.5 128t-360.5 360.5t-132 505.5q0 104 20.5 191t42.5 175l105 -102q-25 -66 -36 -129.5t-11 -134.5q0 -218 115.5 -434t327.5 -327.5t427 -111.5q217 0 433 111.5t328 327.5t112 434q0 215 -112 426.5t-328 328.5t-433 117q-72 0 -139.5 -12.5
t-130.5 -36.5l-96 96q79 33 171.5 52.5t194.5 19.5q272 0 504.5 -132t360.5 -359.5t128 -499.5q0 -273 -128 -505.5t-360.5 -360.5t-504.5 -128zM1481 223l-1049 1057l-121 -311v495h498l-313 -121l1056 -1046z" />
    <glyph glyph-name="uni2325" unicode="&#x2325;" horiz-adv-x="1500"
d="M2007 952h-623v97h623v-97zM2007 0h-623l-776 952h-567v97h623l784 -953h559v-96z" />
    <glyph glyph-name="uni21A9" unicode="&#x21a9;" horiz-adv-x="1454"
d="M1120 983q113 0 184.5 -71.5t71.5 -184.5q0 -102 -71.5 -179t-184.5 -77h-735q111 -119 160 -262h-74q-143 199 -391 295v49q248 86 391 295h74q-49 -143 -160 -273h735q64 0 112 44.5t48 107.5q0 66 -48 114t-112 48v94z" />


  </font>
</defs>
</svg>
